Últimos temas
» 94 - [UnoF] Big Bang - Gara Gara Go!! sub español
Sáb Jun 29, 2013 6:11 am por lilohik

» REGLAS Y NORMAS DEL FORO
Sáb Nov 03, 2012 9:00 pm por Anbi

» Hotaru no Hoshi(sub español)
Jue Ago 30, 2012 7:18 pm por momochii_cami

» ¿Qué es lo que estas ecuchando O.o?
Dom Ene 15, 2012 7:14 pm por Tachis

» hai minna
Dom Nov 06, 2011 3:38 pm por Tokyo


Takahashi Ai (Making Of Katachi) Subs Esp

Ver el tema anterior Ver el tema siguiente Ir abajo

Takahashi Ai (Making Of Katachi) Subs Esp

Mensaje  Tokyo el Jue Ene 20, 2011 9:27 pm


Hola gentesita Bonita aqui les dejo el Making Of del Photobook Katachi de Ai Takahashi
esta subtitulado por mi al Español espero que lo disfruten tanto como yo.


Aqui unas capturas del video:




Y lo mas Importante ahora el Link:




Gracias por Visitar mi post!!!
Saludosss!!!
XD

Código:
Format                          : AVI
Format/Info                      : Audio Video Interleave
File size                        : 175 MiB
Duration                        : 14mn 23s
Overall bit rate                : 1 696 Kbps
Writing application              : Lavf51.12.1
Video
ID                              : 0
Format                          : MPEG-4 Visual
Format profile                  : [email=Simple@L1]Simple@L1[/email]
Format settings, BVOP            : No
Format settings, QPel            : No
Format settings, GMC            : No warppoints
Format settings, Matrix          : Default (H.263)
Codec ID                        : DX50
Codec ID/Hint                    : DivX 5
Duration                        : 14mn 23s
Bit rate                        : 1 490 Kbps
Width                            : 720 pixels
Height                          : 480 pixels
Display aspect ratio            : 3:2
Frame rate                      : 29.970 fps
Standard                        : NTSC
Color space                      : YUV
Chroma subsampling              : 4:2:0
Bit depth                        : 8 bits
Scan type                        : Progressive
Compression mode                : Lossy
Bits/(Pixel*Frame)              : 0.144
Stream size                      : 153 MiB (88%)
Writing library                  : Lavc51.40.4
Audio
ID                              : 1
Format                          : MPEG Audio
Format version                  : Version 1
Format profile                  : Layer 3
Mode                            : Joint stereo
Mode extension                  : MS Stereo
Codec ID                        : 55
Codec ID/Hint                    : MP3
Duration                        : 14mn 23s
Bit rate mode                    : Constant
Bit rate                        : 192 Kbps
Channel(s)                      : 2 channels
Sampling rate                    : 48.0 KHz
Compression mode                : Lossy
Stream size                      : 19.8 MiB (11%)
Alignment                        : Aligned on interleaves
Interleave, duration            : 24 ms (0.72 video frame)
Interleave, preload duration    : 24 ms

_________________________________________________

Te Amare por Siempre Nami Tamaki!!!
avatar
Tokyo
Administrador

León Caballo
Mensajes : 65
Puntos : 219
Fecha de inscripción : 20/01/2011
Edad : 26

Ver perfil de usuario

Volver arriba Ir abajo

Re: Takahashi Ai (Making Of Katachi) Subs Esp

Mensaje  Tachis el Jue Ene 20, 2011 10:08 pm

jojojo excelente men n_n arigatou lo tenia pero sin sub y pos a descargar se a dicho

_________________________________________________
[Tienes que estar registrado y conectado para ver este vínculo]
apoyanos con tu voto

avatar
Tachis
Administrador

Tauro Dragón
Mensajes : 282
Puntos : 1425
Fecha de inscripción : 13/06/2010
Edad : 29
Localización : México

Ver perfil de usuario http://sekaiichiradio.mexicoforo.mx

Volver arriba Ir abajo

Ver el tema anterior Ver el tema siguiente Volver arriba

- Temas similares

 
Permisos de este foro:
No puedes responder a temas en este foro.